[Login] or [Signup]
Login
Username:
Password:
[Signup]
[Recover Account]


Poll


You must be logged in to view polls



Torrent Details For "The Train (2007 ) Hindi DVDRip x264 Tamil Subtitling  AAC { TaRa }.mkv"

The Train (2007 ) Hindi DVDRip x264 Tamil Subtitling  AAC { TaRa }.mkv

Download this torrent | Magnet Download
Health:
Seeds: 0
Leechers: 1
Completed:
Last Checked: 05-02-2018 16:47:01
External Torrent
Update Stats
Download Magnet


Poster


Watch-Free-HD     Download

Details
Name:The Train (2007 ) Hindi DVDRip x264 Tamil Subtitling  AAC { TaRa }.mkv
Description:

Quote:

The Train (2007 ) Hindi DVDRip x264 Tamil Subtitling  AAC { TaRa }.mkv
 

===================================================================
General
                           : The Train (2007 ) Hindi DVDRip x264 Tamil Subtitling  AAC { TaRa }.mkv
Format                      : Matroska
Format version              : Version 4 / Version 2
File size                   : 408 MiB
Duration                    : 2 h 12 min
Overall bit rate            : 430 kb/s
====================================================================
Video
ID                          : 1
Format                      : AVC
Format/Info                 : Advanced Video Codec
Format profile              : [email protected]
Format settings, CABAC      : No
Format settings, ReFrames   : 1 frame
Codec ID                    : V_MPEG4/ISO/AVC
Duration                    : 2 h 12 min
Bit rate                    : 331 kb/s
Width                       : 640 pixels
Height                      : 270 pixels
Display aspect ratio        : 2.40:1
Frame rate mode             : Constant
Frame rate                  : 30.000 FPS
Color space                 : YUV
Chroma subsampling          : 4:2:0
Bit depth                   : 8 bits
Scan type                   : Progressive
Bits/(Pixel*Frame)          : 0.064
Stream size                 : 315 MiB (77%)
Title                       : .....::::: TaRa :::::.....
Language                    : Hindi
Default                     : Yes
Forced                      : No
===================================================================
Audio
ID                          : 2
Format                      : AAC
Format/Info                 : Advanced Audio Codec
Format profile              : LC
Codec ID                    : A_AAC
Duration                    : 2 h 12 min
Bit rate                    : 96.0 kb/s
Channel(s)                  : 2 channels
Channel positions           : Front: L R
Sampling rate               : 44.1 kHz
Frame rate                  : 43.066 FPS (1024 spf)
Compression mode            : Lossy
Stream size                 : 91.2 MiB (22%)
Title                       : .....::::: TaRa :::::.....
Language                    : Hindi
Default                     : Yes
Forced                      : No
===================================================================

 

Category:Movies > Bollywood
Lang:Hindi
Total Size:408.27 MB
Info Hash:7da179ea7dc2c6d6d716abbda034adca381b2bab
Added By:SkTaRa
Date Added:07-04-2017 12:45:52
Views:254
Hits:44

Download Torrent

Ratings:Not Yet Rated (Log in to rate it)


Tracker:
udp://tracker.openbittorrent.com:80/announce


File List: 


Comments

No comments still posted

Powered by 10 Hamsters v2-svn -|- Page Generated In 0.597680 secs.
-|- RSS FEED
Theme By: Nikkbu