[Login] or [Signup]
Login
Username:
Password:
[Signup]
[Recover Account]


Poll


You must be logged in to view polls



Torrent Details For "Star Wars The Last Jedi (2017) BDRip 1080p [Dual Audio] [ORG BD 5.1 Hindi-Eng] [PGS] Tariq Qman"

Star Wars The Last Jedi (2017) BDRip 1080p [Dual Audio] [ORG BD 5.1 Hindi-Eng] [PGS] Tariq Qman

Download this torrent | Magnet Download
Health:
Seeds: 0
Leechers: 123
Completed: 306 
Last Checked: 21-04-2018 20:45:44
External Torrent
Update Stats
Download Magnet


Poster


Watch-Free-HD     Download

Details
Name:Star Wars The Last Jedi (2017) BDRip 1080p [Dual Audio] [ORG BD 5.1 Hindi-Eng] [PGS] Tariq Qman
Description:


[size=13]Star Wars The Last Jedi (2017) BDRip 1080p [Dual Audio] [ORG BD 5.1 Hindi-Eng] [PGS] Tariq Qman[/size]

[img]http://s2.sywcdn.net/getImage?url=http%3A%2F%2Fc.shld.net%2Frpx%2Fi%2Fs%2Fi%2Fspin%2F10118977%2Fprod_19259720712&t=Product&w=1500&h=1500&qlt=100&mrg=1&str=1&s=5f6cf298dab346e35bebba011d48febe[/img]

Storyline :

Rey develops her newly discovered abilities with the guidance of Luke Skywalker, who is unsettled by the strength of her powers. Meanwhile, the Resistance prepares for battle with the First Order.


Cast :

Mark Hamill ... Luke Skywalker / Dobbu Scay

Carrie Fisher ... Leia Organa

Adam Driver ... Kylo Ren

Daisy Ridley ... Rey

John Boyega ... Finn

Oscar Isaac ... Poe Dameron

Andy Serkis ... Snoke

Lupita Nyong'o ... Maz Kanata


Genre :

Action, Adventure & Fantasy


General

Unique ID : 190608313147851762483002148942228968027 (0x8F65D3673D4B56F080CB9C50BF1F525B)

Complete name : Star Wars The Last Jedi (2017) BDRip 1080p [Dual Audio] [ORG BD 5.1 Hindi-
Eng] [PGS] Tariq Qman.mkv

Format : Matroska

Format version : Version 4 / Version 2

File size : 2.97 GiB

Duration : 2 h 31 min

Overall bit rate : 2 796 kb/s

Movie name : Star Wars The Last Jedi (2017) BDRip 1080p [Dual Audio] [ORG BD 5.1 Hindi-
Eng] [PGS] Tariq Qman

Encoded date : UTC 2018-04-05 09:38:35

Writing application : mkvmerge v8.6.1 ('Flying') 32bit

Writing library : libebml v1.3.3 + libmatroska v1.4.4


Video

ID : 1

Format : HEVC

Format/Info : High Efficiency Video Coding

Format profile : [email protected]@Main

Codec ID : V_MPEGH/ISO/HEVC

Duration : 2 h 31 min

Bit rate : 1 868 kb/s

Width : 1 920 pixels

Height : 808 pixels

Display aspect ratio : 2.40:1

Frame rate mode : Constant

Frame rate : 23.976 (24000/1001) FPS

Color space : YUV

Chroma subsampling : 4:2:0

Bit depth : 8 bits

Bits/(Pixel*Frame) : 0.050

Stream size : 1.98 GiB (67%)

Title : Star Wars The Last Jedi (2017) BDRip 1080p [Dual Audio] [ORG BD 5.1 Hindi-
Eng] [PGS] Tariq Qman

Language : English

Default : Yes

Forced : No


Audio #1

ID : 2

Format : AC-3

Format/Info : Audio Coding 3

Codec ID : A_AC3

Duration : 2 h 31 min

Bit rate mode : Constant

Bit rate : 640 kb/s

Channel(s) : 6 channels

Channel positions : Front: L C R, Side: L R, LFE

Sampling rate : 48.0 kHz

Frame rate : 31.250 FPS (1536 SPF)

Bit depth : 16 bits

Compression mode : Lossy

Stream size : 695 MiB (23%)

Title : RiPPER ~MX~ ORG BLURAY DOLBY DIGITAL [email protected]~

Language : Hindi

Service kind : Complete Main

Default : No

Forced : No


Audio #2

ID : 3

Format : AAC

Format/Info : Advanced Audio Codec

Format profile : HE-AAC / LC

Format settings : Explicit

Codec ID : A_AAC-2

Duration : 2 h 31 min

Bit rate : 256 kb/s

Channel(s) : 6 channels

Channel positions : Front: L C R, Side: L R, LFE

Sampling rate : 48.0 kHz / 24.0 kHz

Frame rate : 23.438 FPS (1024 SPF)

Compression mode : Lossy

Delay relative to video : 31 ms

Stream size : 278 MiB (9%)

Title : RiPPER ~MX~ ORG BLURAY DOLBY DIGITAL [email protected]~

Language : English

Default : Yes

Forced : No


Text #1

ID : 4

Format : PGS

Muxing mode : zlib

Codec ID : S_HDMV/PGS

Codec ID/Info : Picture based subtitle format used on BDs/HD-DVDs

Duration : 2 h 24 min

Bit rate : 21.6 kb/s

Count of elements : 4798

Stream size : 22.3 MiB (1%)

Title : ~Presentation Graphic Subtitle~

Language : English

Default : Yes

Forced : No


Text #2

ID : 5
Format : PGS

Muxing mode : zlib

Codec ID : S_HDMV/PGS

Codec ID/Info : Picture based subtitle format used on BDs/HD-DVDs

Duration : 2 h 23 min

Bit rate : 10.1 kb/s

Count of elements : 3778

Stream size : 10.4 MiB (0%)

Title : ~Presentation Graphic Subtitle~

Language : English

Default : No

Forced : No


Menu

00:00:00.000 : en:00:00:00.000

00:00:18.644 : en:00:00:18.644

00:01:45.731 : en:00:01:45.731

00:03:11.817 : en:00:03:11.817

00:07:43.296 : en:00:07:43.296

00:12:48.434 : en:00:12:48.434

00:13:44.574 : en:00:13:44.574

00:16:29.280 : en:00:16:29.280

00:19:59.281 : en:00:19:59.281

00:22:51.370 : en:00:22:51.370

00:26:04.980 : en:00:26:04.980

00:27:22.850 : en:00:27:22.850

00:31:24.758 : en:00:31:24.758

00:32:54.681 : en:00:32:54.681

00:35:27.667 : en:00:35:27.667

00:38:11.498 : en:00:38:11.498

00:41:53.428 : en:00:41:53.428

00:44:29.542 : en:00:44:29.542

00:46:51.475 : en:00:46:51.475

00:51:41.932 : en:00:51:41.932

00:53:50.060 : en:00:53:50.060

00:55:41.505 : en:00:55:41.505

00:57:39.581 : en:00:57:39.581

00:59:16.636 : en:00:59:16.636

01:02:05.847 : en:01:02:05.847

01:03:07.701 : en:01:03:07.701

01:05:41.729 : en:01:05:41.729

01:07:03.478 : en:01:07:03.478

01:10:25.721 : en:01:10:25.721

01:13:30.323 : en:01:13:30.323

01:17:43.450 : en:01:17:43.450

01:20:53.057 : en:01:20:53.057

01:24:17.970 : en:01:24:17.970

01:26:23.220 : en:01:26:23.220

01:27:59.524 : en:01:27:59.524

01:30:49.361 : en:01:30:49.361

01:32:54.569 : en:01:32:54.569

01:35:53.706 : en:01:35:53.706

01:37:10.616 : en:01:37:10.616

01:39:12.864 : en:01:39:12.864

01:42:07.663 : en:01:42:07.663

01:45:03.714 : en:01:45:03.714

01:49:35.694 : en:01:49:35.694

01:52:20.609 : en:01:52:20.609

01:56:04.749 : en:01:56:04.749

01:58:52.083 : en:01:58:52.083

02:03:11.134 : en:02:03:11.134

02:06:39.759 : en:02:06:39.759

02:11:43.604 : en:02:11:43.604

02:15:12.104 : en:02:15:12.104

02:20:16.700 : en:02:20:16.700

02:23:39.694 : en:02:23:39.694










NOTE:



1. SEEDING FROM HIGH SPEED SERVER, ENJOY MAX DOWNLOAD SPEED

2.REQUESTS ARE ACCEPTED  HERE



Category:Movies > Hollywood Dub
Lang:English  English
Total Size:3.05 GB
Info Hash:4b8cbc22d0c957872ed633109df8cd01fa74be3a
Added By:TariqQman
Date Added:07-04-2018 12:55:00
Views:406
Hits:41

Download Torrent

Ratings:Not Yet Rated (Log in to rate it)


Tracker:
udp://9.rarbg.me:2710/announce


File List: 


Comments

No comments still posted

Powered by 10 Hamsters v2-svn -|- Page Generated In 1.699074 secs.
-|- RSS FEED
Theme By: Nikkbu