[Login] or [Signup]
Login
Username:
Password:
[Signup]
[Recover Account]


Poll


You must be logged in to view polls



Torrent Details For "Red Sparrow 2018 1080p HC HDRip AAC 2.0 x264 [MW]"

Red Sparrow 2018 1080p HC HDRip AAC 2.0 x264 [MW]

Download this torrent | Magnet Download
Health:
Seeds: 48
Leechers: 298
Completed: 61 
Last Checked: 16-04-2018 13:34:20
External Torrent
Update Stats
Download Magnet


Poster
No poster


Watch-Free-HD     Download

Details
Name:Red Sparrow 2018 1080p HC HDRip AAC 2.0 x264 [MW]
Description:

 


General
Format                                   : Matroska
Format version                           : Version 4 / Version 2
File size                                : 1.99 GiB
Duration                                 : 2 h 15 min
Overall bit rate                         : 2 099 kb/s

Video
ID                                       : 1
Format                                   : AVC
Format/Info                              : Advanced Video Codec
Format profile                           : [email protected]
Format settings                          : CABAC / 4 Ref Frames
Format settings, CABAC                   : Yes
Format settings, RefFrames               : 4 frames
Codec ID                                 : V_MPEG4/ISO/AVC
Duration                                 : 2 h 15 min
Bit rate                                 : 2 000 kb/s
Width                                    : 1 904 pixels
Height                                   : 800 pixels
Display aspect ratio                     : 2.40:1
Frame rate mode                          : Constant
Frame rate                               : 29.970 (30000/1001) FPS
Color space                              : YUV
Chroma subsampling                       : 4:2:0
Bit depth                                : 8 bits
Scan type                                : Progressive
Bits/(Pixel*Frame)                       : 0.044
Stream size                              : 1.87 GiB (94%)
Writing library                          : x264 core 155 r2893 b00bcaf
Default                                  : Yes
Forced                                   : No

Audio
ID                                       : 2
Format                                   : AAC
Format/Info                              : Advanced Audio Codec
Format profile                           : LC
Codec ID                                 : A_AAC-2
Duration                                 : 2 h 15 min
Bit rate                                 : 128 kb/s
Channel(s)                               : 2 channels
Channel positions                        : Front: L R
Sampling rate                            : 48.0 kHz
Frame rate                               : 46.875 FPS (1024 SPF)
Compression mode                         : Lossy
Stream size                              : 124 MiB (6%)
Language                                 : English
Default                                  : Yes
Forced                                   : No




           

Category:Movies > HDRips
Lang:English  English
Total Size:1.99 GB
Info Hash:200cada9bf9b9d53c8e61daf0d237741a94889e6
Added By:Freaky
Date Added:16-04-2018 13:33:55
Views:267
Hits:22

Download Torrent

Ratings:Not Yet Rated (Log in to rate it)


Tracker:
udp://tracker.pirateparty.gr:6969/announce

This Torrent also has backup trackers
URLSeedersLeechersCompleted
http://tracker.vanitycore.co:6969/announce3264
http://public.popcorn-tracker.org:6969/announce3264


File List: 


Comments

No comments still posted

Powered by 10 Hamsters v2-svn -|- Page Generated In 0.770872 secs.
-|- RSS FEED
Theme By: Nikkbu